Великая стена руторг


new-rutor.org :: Великая стена / The Great Wall (2016) HDRip от Scarabey


Мы "В КОНТАКТЕ" =)

Год выпуска: 2016
Страна: США, Китай, Гонконг, Австралия, Канада
Жанр: фэнтези, боевик, триллер, приключения
Продолжительность: 01:43:03
Перевод: Профессиональный (полное дублирование) [Лицензия]
Cубтитры: нет

Режиссер: Чжан Имоу / Zhang Yimou

В ролях: Мэтт Дэймон, Цзин Тянь, Уиллем Дефо, Энди Лау, Педро Паскаль, Чжан Ханьюй, Лухан, Кенни Линь, Эдди Пэн, Хуан Сюань

Описание: Великую стену воздвигли, чтобы оградить Поднебесную от любых угроз, но с таким врагом не сталкивались даже самые отважные ее защитники. Если вторжение не остановить — мир будет уничтожен.

Качество видео: BDRip 720p
Формат видео: MKV

Видео: 1280х536, 23.976 fps, AVC ~5010 kbps avg
Аудио: 48 kHz, AC3 Dolby Digital, 3/2 (L,C,R,l,r) + LFE ch, ~640 kbps

Релиз от:

АНОНСЫ МОИХ РАЗДАЧ!

МедиаИнфо


Великая стенаThe.Great.Wall.2016.720p_BDRip_[scarabey.org].mkv
Format : Matroska
Format version : Version 4 / Version 2
File size : 4.15 GiB
Duration : 1h 43mn
Overall bit rate : 5 765 Kbps
Movie name : The Great Wall 2016 720p BluRay DD5.1 x264-HDS
Encoded date : UTC 2017-05-14 16:36:08
Writing application : mkvmerge v6.1.0 ('Old Devil') built on Mar 4 2013 09:10:42
Writing library : libebml v1.3.0 + libmatroska v1.4.0

Video
ID : 1
Format : AVC
Format/Info : Advanced Video Codec
Format profile : [email protected]
Format settings, CABAC : Yes
Format settings, ReFrames : 12 frames
Codec ID : V_MPEG4/ISO/AVC
Duration : 1h 43mn
Bit rate : 5 010 Kbps
Width : 1 280 pixels
Height : 536 pixels
Display aspect ratio : 2.40:1
Frame rate mode : Constant
Frame rate : 23.976 fps
Color space : YUV
Chroma subsampling : 4:2:0
Bit depth : 8 bits
Scan type : Progressive
Bits/(Pixel*Frame) : 0.305
Stream size : 3.61 GiB (87%)
Title : 环环@HDSky
Writing library : x264 core 148 r2705+45 bdacf7a 7mod [[email protected] X86_64]
Encoding settings : cabac=1 / ref=12 / deblock=1:-3:-3 / analyse=0x3:0x113 / me=umh / subme=11 / psy=1 / fade_compensate=0.00 / psy_rd=1.00:0.05 / mixed_ref=1 / me_range=32 / chroma_me=1 / trellis=2 / 8x8dct=1 / cqm=0 / deadzone=21,11 / fast_pskip=0 / chroma_qp_offset=-2 / threads=24 / lookahead_threads=4 / sliced_threads=0 / nr=0 / decimate=1 / interlaced=0 / bluray_compat=0 / constrained_intra=0 / fgo=0 / bframes=8 / b_pyramid=2 / b_adapt=2 / b_bias=0 / direct=3 / weightb=1 / open_gop=0 / weightp=2 / keyint=250 / keyint_min=23 / scenecut=40 / intra_refresh=0 / rc=crf / mbtree=0 / crf=16.0000 / qcomp=0.60 / qpmin=0:0:0 / qpmax=69:69:69 / qpstep=4 / ip_ratio=1.40 / pb_ratio=1.30 / aq=4:0.90 / aq-sensitivity=10.00 / aq-factor=1.00:1.00:1.00 / aq2=0 / aq3=0
Default : Yes
Forced : No

Audio
ID : 2
Format : AC-3
Format/Info : Audio Coding 3
Mode extension : CM (complete main)
Format settings, Endianness : Big
Codec ID : A_AC3
Duration : 1h 43mn
Bit rate mode : Constant
Bit rate : 640 Kbps
Channel(s) : 6 channels
Channel positions : Front: L C R, Side: L R, LFE
Sampling rate : 48.0 KHz
Bit depth : 16 bits
Compression mode : Lossy
Stream size : 472 MiB (11%)
Title : Дубляж - Лицензия
Language : Russian
Default : Yes
Forced : No

Text
ID : 3
Format : UTF-8
Codec ID : S_TEXT/UTF8
Codec ID/Info : UTF-8 Plain Text
Title : русские, форсированные
Language : Russian
Default : Yes
Forced : No

rutorg.new-rutor.org

new-rutor.org :: Великая стена / The Great Wall (2016) BDRip от HQCLUB | D


Великая стена / The Great Wall (2016) BDRip
от
HQCLUB

Информация о фильме:
Название: Великая стена
Оригинальное название: The Great Wall
Год выхода: 2016
Жанр: фэнтези, боевик, триллер, приключения
Режиссер: Чжан Имоу
В ролях: Мэтт Дэймон, Цзин Тянь, Уиллем Дефо, Энди Лау, Педро Паскаль, Чжан Ханьюй, Лухан, Кенни Линь, Эдди Пэн, Хуан Сюань

О фильме: Великую стену воздвигли, чтобы оградить Поднебесную от любых угроз, но с таким врагом не сталкивались даже самые отважные ее защитники. Если вторжение не остановить — мир будет уничтожен.


Релиз от -
Автор рипа: yaroslaigor

Выпущено: США, Китай, Гонконг, Австралия, Канада
Продолжительность: 01:43:03
Перевод: Профессиональный (полное дублирование) CEE + Оригинал (английский)
Субтитры: русские (полные, форсированные), английские (обычные, SDH, форсированные)

Файл:
Формат: AVI
Качество: BDRip (источник: HDCLUB / Blu-Ray CEE / 1080р)
Видео: 720x304 (2.37:1), 23.976 fps, XviD build 65 ~2129 kbps avg, 0.41 bit/pixel
Аудио #1: 48 kHz, AC3 Dolby Digital, 3/2 (L,C,R,l,r) + LFE ch, ~448 kbps avg (RUS)
Аудио #2: 48 kHz, AC3 Dolby Digital, 3/2 (L,C,R,l,r) + LFE ch, ~448 kbps avg (ENG)
Размер: 2234.90 Mb
Скачать: Сэмпл

www.rutor.org.new-rutor.org

new-rutor.org :: Великая стена / The Great Wall (2016) BDRip от ExKinoRay


Великая стена / The Great Wall

«1700 лет ушло на строительство. 8851 км неприступных стен. Какой враг угрожал империи?»

Год выпуска: 2016
Страна: США, Китай, Гонконг, Австралия, Канада
Жанр: фэнтези, боевик, триллер, приключения
Продолжительность: 01:43:03
Перевод: Профессиональный (полное дублирование) [Лицензия Blu-ray CEE]
Субтитры: Русские форсированные (надписи и прочее) - вшитые


Режиссер: Чжан Имоу

В ролях: Мэтт Дэймон (William), Цзин Тянь (Commander Lin Mae), Уиллем Дефо (Ballard), Энди Лау (Strategist Wang), Педро Паскаль (Tovar), Чжан Ханьюй (General Shao), Лухан (Peng Yong), Кенни Линь (Commander Chen), Эдди Пэн (Commander Wu), Хуан Сюань (Commander Deng), Чжэн Кай (Shen), Кэрри Ван (Emperor)


Описание:
Великую стену воздвигли, чтобы оградить Поднебесную от любых угроз, но с таким врагом не сталкивались даже самые отважные ее защитники. Если вторжение не остановить - мир будет уничтожен.


Рейтинг:

MPAA: PG-13 - Детям до 13 лет просмотр не желателен



Качество: BDRip | исх. The.Great.Wall.2016.BDREMUX.1080p.ExKinoRay |
Формат: AVI
Видео кодек: XviD
Аудио кодек: AC3
Видео: 720x304 (2.37:1), 23.976 fps, XviD build 73 ~1572 kbps avg, 0.30 bit/pixel
Аудио: 48 kHz, AC3 Dolby Digital, 3/2 (L,C,R,l,r) + LFE ch, ~448 kbps




Автор релиза: Релиз:

rutorg.new-rutor.org

new-rutor.org :: Великая стена / The Great Wall (2016) BDRip от HQCLUB | D


Великая стена / The Great Wall (2016) BDRip
от
HQCLUB

Информация о фильме:
Название: Великая стена
Оригинальное название: The Great Wall
Год выхода: 2016
Жанр: фэнтези, боевик, триллер, приключения
Режиссер: Чжан Имоу
В ролях: Мэтт Дэймон, Цзин Тянь, Уиллем Дефо, Энди Лау, Педро Паскаль, Чжан Ханьюй, Лухан, Кенни Линь, Эдди Пэн, Хуан Сюань

О фильме: Великую стену воздвигли, чтобы оградить Поднебесную от любых угроз, но с таким врагом не сталкивались даже самые отважные ее защитники. Если вторжение не остановить — мир будет уничтожен.


Релиз от -
Автор рипа: yaroslaigor

Выпущено: США, Китай, Гонконг, Австралия, Канада
Продолжительность: 01:43:03
Перевод: Профессиональный (полное дублирование) CEE + Оригинал (английский)
Субтитры: русские (полные, форсированные), английские (обычные, SDH, форсированные)

Файл:
Формат: AVI
Качество: BDRip (источник: HDCLUB / Blu-Ray CEE / 1080р)
Видео: 720x304 (2.37:1), 23.976 fps, XviD build 65 ~2129 kbps avg, 0.41 bit/pixel
Аудио #1: 48 kHz, AC3 Dolby Digital, 3/2 (L,C,R,l,r) + LFE ch, ~448 kbps avg (RUS)
Аудио #2: 48 kHz, AC3 Dolby Digital, 3/2 (L,C,R,l,r) + LFE ch, ~448 kbps avg (ENG)
Размер: 2234.90 Mb
Скачать: Сэмпл

rutorg.org.new-rutor.org

new-rutor.org :: Великая стена / The Great Wall (2016) BDRip от ExKinoRay


Великая стена / The Great Wall

«1700 лет ушло на строительство. 8851 км неприступных стен. Какой враг угрожал империи?»

Год выпуска: 2016
Страна: США, Китай, Гонконг, Австралия, Канада
Жанр: фэнтези, боевик, триллер, приключения
Продолжительность: 01:43:03
Перевод: Профессиональный (полное дублирование) [Лицензия Blu-ray CEE]
Субтитры: Русские форсированные (надписи и прочее) - вшитые


Режиссер: Чжан Имоу

В ролях: Мэтт Дэймон (William), Цзин Тянь (Commander Lin Mae), Уиллем Дефо (Ballard), Энди Лау (Strategist Wang), Педро Паскаль (Tovar), Чжан Ханьюй (General Shao), Лухан (Peng Yong), Кенни Линь (Commander Chen), Эдди Пэн (Commander Wu), Хуан Сюань (Commander Deng), Чжэн Кай (Shen), Кэрри Ван (Emperor)


Описание:
Великую стену воздвигли, чтобы оградить Поднебесную от любых угроз, но с таким врагом не сталкивались даже самые отважные ее защитники. Если вторжение не остановить - мир будет уничтожен.


Рейтинг:

MPAA: PG-13 - Детям до 13 лет просмотр не желателен



Качество: BDRip | исх. The.Great.Wall.2016.BDREMUX.1080p.ExKinoRay |
Формат: AVI
Видео кодек: XviD
Аудио кодек: AC3
Видео: 720x304 (2.37:1), 23.976 fps, XviD build 73 ~1572 kbps avg, 0.30 bit/pixel
Аудио: 48 kHz, AC3 Dolby Digital, 3/2 (L,C,R,l,r) + LFE ch, ~448 kbps




Автор релиза: Релиз:

www.rutor.org.new-rutor.org

new-rutor.org :: Великая стена / The Great Wall (2016) BDRip-AVC от MediaClub


Информация о фильме
Название: Великая стена
Оригинальное название: The Great Wall
Год выхода: 2016
Жанр: Фэнтези, приключения
Режиссер: Имоу Чжан
В ролях: Мэтт Дэймон, Тянь Цзин, Педро Паскаль, Лу Хан, Уиллем Дефо, Энди Лау, Эдди Пэн, Нуман Аджар, Кенни Лин, Ханьюй Чжан, Вики Юй, Лю Бин, Кай Чжэн, Джонни Чикко, Чэни Чэнь, Кэрри Ван, Сюань Хуан

О фильме: Великую стену воздвигли, чтобы оградить Поднебесную от любых угроз, но с таким врагом не сталкивались даже самые отважные ее защитники. Если вторжение не остановить — мир будет уничтожен.

Страна: Китай, США
Студия: Atlas Entertainment, China Film Group Corporation, Legendary Pictures
Продолжительность: 01:43:03
Дата релиза: 01.07.2019

Файл
Кодек: x264
Качество: BDRip-AVC
Видео: MPEG-4 AVC, 2530 Кбит/с, 1024x430, 23.976 кадр/c
Аудио #1: Русский (AC3, 6 ch, 448 Кбит/с) / Дублированный
Аудио #2: Русский (AC3, 6 ch, 448 Кбит/с) / Авторский одноголосый (А.Гаврилов)
Аудио #3: Английский (AC3, 6 ch, 448 Кбит/с)
Субтитры: Русские, английские

Семпл

MediaInfo

Общее
Полное имя : D:ЗагрузкиVelikaia.stena.2016.x264.BDRip.(AVC)-MediaClub.mkv
Формат : Matroska
Размер файла : 2,79 Гигабайт
Продолжительность : 1ч 43мин
Общий поток : 3 876 Кбит/сек
Фильм : Релиз от MediaClub (konstantin49)
Дата кодирования : UTC 2019-06-30 18:26:34
Программа-кодировщик : mkvmerge v5.8.0 ('No Sleep / Pillow') built on Sep 2 2012 15:37:04
Библиотека кодирования : libebml v1.2.3 + libmatroska v1.3.0

Видео
Формат : AVC
Формат/Информация : Advanced Video Codec
Профайл формата : [email protected]
Настройка CABAC формата : Да
Настройка ReFrames формата : 12 кадры
Режим смешивания : Container [email protected]
Идентификатор кодека : V_MPEG4/ISO/AVC
Продолжительность : 1ч 42мин
Битрейт : 2 363 Кбит/сек
Номинальный битрейт : 2 530 Кбит/сек
Ширина : 1 024 пикс.
Высота : 430 пикс.
Соотношение кадра : 2.35
Частота кадров : 23,976 кадр/сек
Разрешение : 24 бит
Колориметрия : 4:2:0
Тип развёртки : Прогрессивная
Бит/(Пиксели*Кадры) : 0.240
Библиотека кодирования : x264 core 148 r2638 7599210
Настройки программы : cabac=1 / ref=12 / deblock=1:-3:-3 / analyse=0x3:0x113 / me=umh / subme=11 / psy=1 / psy_rd=1.00:0.15 / mixed_ref=1 / me_range=48 / chroma_me=1 / trellis=2 / 8x8dct=1 / cqm=0 / deadzone=21,11 / fast_pskip=0 / chroma_qp_offset=-3 / threads=6 / lookahead_threads=1 / sliced_threads=0 / nr=0 / decimate=0 / interlaced=0 / bluray_compat=0 / constrained_intra=0 / bframes=11 / b_pyramid=2 / b_adapt=2 / b_bias=0 / direct=3 / weightb=1 / open_gop=0 / weightp=2 / keyint=240 / keyint_min=23 / scenecut=40 / intra_refresh=0 / rc_lookahead=40 / rc=2pass / mbtree=0 / bitrate=2530 / ratetol=1.0 / qcomp=0.60 / qpmin=0 / qpmax=69 / qpstep=4 / cplxblur=20.0 / qblur=0.5 / vbv_maxrate=50000 / vbv_bufsize=62500 / nal_hrd=none / filler=0 / ip_ratio=1.40 / pb_ratio=1.30 / aq=3:0.80

Аудио #1
Формат : AC-3
Формат/Информация : Audio Coding 3
Идентификатор кодека : A_AC3
Продолжительность : 1ч 43мин
Режим расчёта битрейта : Постоянный
Битрейт : 448 Кбит/сек
Канал(ы) : 6 канала(ов)
Расположение каналов : Front: L C R, Rear: L R, LFE
Частота : 48,0 КГц
Заголовок : Дублированный
Язык : Russian

Аудио #2
Формат : AC-3
Формат/Информация : Audio Coding 3
Идентификатор кодека : A_AC3
Продолжительность : 1ч 43мин
Режим расчёта битрейта : Постоянный
Битрейт : 448 Кбит/сек
Канал(ы) : 6 канала(ов)
Расположение каналов : Front: L C R, Rear: L R, LFE
Частота : 48,0 КГц
Заголовок : Авторский одноголосый (А.Гаврилов)
Язык : Russian

Аудио #3
Формат : AC-3
Формат/Информация : Audio Coding 3
Идентификатор кодека : A_AC3
Продолжительность : 1ч 43мин
Режим расчёта битрейта : Постоянный
Битрейт : 448 Кбит/сек
Канал(ы) : 6 канала(ов)
Расположение каналов : Front: L C R, Rear: L R, LFE
Частота : 48,0 КГц
Заголовок : Оригинал

Текст #1
Формат : UTF-8
Идентификатор кодека : S_TEXT/UTF8
Идентификатор кодека/Информация : UTF-8 Plain Text
Заголовок : форсированные
Язык : Russian

Текст #2
Формат : UTF-8
Идентификатор кодека : S_TEXT/UTF8
Идентификатор кодека/Информация : UTF-8 Plain Text
Заголовок : полные
Язык : Russian

Текст #3
Формат : UTF-8
Идентификатор кодека : S_TEXT/UTF8
Идентификатор кодека/Информация : UTF-8 Plain Text
Заголовок : полные

Разделы
Язык : English
1 : 00:00:00.000 Chapter 01
2 : 00:05:58.358 Chapter 02
3 : 00:11:47.539 Chapter 03
4 : 00:16:53.678 Chapter 04
5 : 00:20:13.252 Chapter 05
6 : 00:25:11.009 Chapter 06
7 : 00:28:55.316 Chapter 07
8 : 00:33:57.743 Chapter 08
9 : 00:37:54.145 Chapter 09
10 : 00:42:42.933 Chapter 10
11 : 00:46:18.942 Chapter 11
12 : 00:50:27.690 Chapter 12
13 : 00:56:46.067 Chapter 13
14 : 01:01:58.047 Chapter 14
15 : 01:07:12.820 Chapter 15
16 : 01:12:08.532 Chapter 16
17 : 01:18:20.862 Chapter 17
18 : 01:23:25.081 Chapter 18
19 : 01:27:26.157 Chapter 19
20 : 01:31:14.385 Chapter 20
21 : 01:43:03.092 Chapter 21

x264 [info]: frame I:1185 Avg QP:14.63 size: 81175
x264 [info]: frame P:38931 Avg QP:17.89 size: 25909
x264 [info]: frame B:108136 Avg QP:20.30 size: 7862


Релиз от:
Автор рипа

www.rutor.org.new-rutor.org

new-rutor.org :: Великая стена / The Great Wall (2016) BDRip от HQCLUB | D


Великая стена / The Great Wall (2016) BDRip
от
HQCLUB

Информация о фильме:
Название: Великая стена
Оригинальное название: The Great Wall
Год выхода: 2016
Жанр: фэнтези, боевик, триллер, приключения
Режиссер: Чжан Имоу
В ролях: Мэтт Дэймон, Цзин Тянь, Уиллем Дефо, Энди Лау, Педро Паскаль, Чжан Ханьюй, Лухан, Кенни Линь, Эдди Пэн, Хуан Сюань

О фильме: Великую стену воздвигли, чтобы оградить Поднебесную от любых угроз, но с таким врагом не сталкивались даже самые отважные ее защитники. Если вторжение не остановить — мир будет уничтожен.


Релиз от -
Автор рипа: yaroslaigor

Выпущено: США, Китай, Гонконг, Австралия, Канада
Продолжительность: 01:43:03
Перевод: Профессиональный (полное дублирование) CEE + Оригинал (английский)
Субтитры: русские (полные, форсированные), английские (обычные, SDH, форсированные)

Файл:
Формат: AVI
Качество: BDRip (источник: HDCLUB / Blu-Ray CEE / 1080р)
Видео: 720x304 (2.37:1), 23.976 fps, XviD build 65 ~2129 kbps avg, 0.41 bit/pixel
Аудио #1: 48 kHz, AC3 Dolby Digital, 3/2 (L,C,R,l,r) + LFE ch, ~448 kbps avg (RUS)
Аудио #2: 48 kHz, AC3 Dolby Digital, 3/2 (L,C,R,l,r) + LFE ch, ~448 kbps avg (ENG)
Размер: 2234.90 Mb
Скачать: Сэмпл

www.rutororg.new-rutor.org

new-rutor.org :: Великая стена / The Great Wall (2016) BDRip от ExKinoRay


Великая стена / The Great Wall

«1700 лет ушло на строительство. 8851 км неприступных стен. Какой враг угрожал империи?»

Год выпуска: 2016
Страна: США, Китай, Гонконг, Австралия, Канада
Жанр: фэнтези, боевик, триллер, приключения
Продолжительность: 01:43:03
Перевод: Профессиональный (полное дублирование) [Лицензия Blu-ray CEE]
Субтитры: Русские форсированные (надписи и прочее) - вшитые


Режиссер: Чжан Имоу

В ролях: Мэтт Дэймон (William), Цзин Тянь (Commander Lin Mae), Уиллем Дефо (Ballard), Энди Лау (Strategist Wang), Педро Паскаль (Tovar), Чжан Ханьюй (General Shao), Лухан (Peng Yong), Кенни Линь (Commander Chen), Эдди Пэн (Commander Wu), Хуан Сюань (Commander Deng), Чжэн Кай (Shen), Кэрри Ван (Emperor)


Описание:
Великую стену воздвигли, чтобы оградить Поднебесную от любых угроз, но с таким врагом не сталкивались даже самые отважные ее защитники. Если вторжение не остановить - мир будет уничтожен.


Рейтинг:

MPAA: PG-13 - Детям до 13 лет просмотр не желателен



Качество: BDRip | исх. The.Great.Wall.2016.BDREMUX.1080p.ExKinoRay |
Формат: AVI
Видео кодек: XviD
Аудио кодек: AC3
Видео: 720x304 (2.37:1), 23.976 fps, XviD build 73 ~1572 kbps avg, 0.30 bit/pixel
Аудио: 48 kHz, AC3 Dolby Digital, 3/2 (L,C,R,l,r) + LFE ch, ~448 kbps




Автор релиза: Релиз:

www.zerkalo.rutor.org.new-rutor.org

new-rutor.org :: Великая стена / The Great Wall (2016) BDRip 720p от MediaClub


Информация о фильме
Название: Великая стена
Оригинальное название: The Great Wall
Год выхода: 2016
Жанр: Фэнтези, приключения
Режиссер: Имоу Чжан
В ролях: Мэтт Дэймон, Тянь Цзин, Педро Паскаль, Лу Хан, Уиллем Дефо, Энди Лау, Эдди Пэн, Нуман Аджар, Кенни Лин, Ханьюй Чжан, Вики Юй, Лю Бин, Кай Чжэн, Джонни Чикко, Чэни Чэнь, Кэрри Ван, Сюань Хуан

О фильме: Великую стену воздвигли, чтобы оградить Поднебесную от любых угроз, но с таким врагом не сталкивались даже самые отважные ее защитники. Если вторжение не остановить — мир будет уничтожен.

Страна: Китай, США
Студия: Atlas Entertainment, China Film Group Corporation, Legendary Pictures
Продолжительность: 01:43:03
Дата релиза: 07.07.2019

Файл
Кодек: x264
Качество: BDRip 720p
Видео: MPEG-4 AVC, 3946 Кбит/с, 1280x536, 23.976 Кадр/c
Аудио #1: Русский (AC3, 6 ch, 640 Кбит/с) / Дублированный
Аудио #2: Русский (AC3, 6 ch, 640 Кбит/с) / Авторский одноголосый (А.Гаврилов)
Аудио #3: Английский (AC3, 6 ch, 640 Кбит/с)
Субтитры: Русские, английские

Семпл

MediaInfo

Общее
Полное имя : D:ЗагрузкиVelikaia.stena.2016.x264.BDRip.(720p)-MediaClub.mkv
Формат : Matroska
Размер файла : 4,22 Гигабайт
Продолжительность : 1ч 43мин
Общий поток : 5 868 Кбит/сек
Фильм : Релиз от MediaClub (konstantin49)
Дата кодирования : UTC 2019-07-06 12:07:41
Программа-кодировщик : mkvmerge v5.8.0 ('No Sleep / Pillow') built on Sep 2 2012 15:37:04
Библиотека кодирования : libebml v1.2.3 + libmatroska v1.3.0

Видео
Формат : AVC
Формат/Информация : Advanced Video Codec
Профайл формата : [email protected]
Настройка CABAC формата : Да
Настройка ReFrames формата : 12 кадры
Режим смешивания : Container [email protected]
Идентификатор кодека : V_MPEG4/ISO/AVC
Продолжительность : 1ч 42мин
Битрейт : 3 700 Кбит/сек
Номинальный битрейт : 3 946 Кбит/сек
Ширина : 1 280 пикс.
Высота : 536 пикс.
Соотношение кадра : 2.35
Частота кадров : 23,976 кадр/сек
Разрешение : 24 бит
Колориметрия : 4:2:0
Тип развёртки : Прогрессивная
Бит/(Пиксели*Кадры) : 0.240
Библиотека кодирования : x264 core 148 r2638 7599210
Настройки программы : cabac=1 / ref=12 / deblock=1:-3:-3 / analyse=0x3:0x113 / me=umh / subme=11 / psy=1 / psy_rd=1.00:0.15 / mixed_ref=1 / me_range=48 / chroma_me=1 / trellis=2 / 8x8dct=1 / cqm=0 / deadzone=21,11 / fast_pskip=0 / chroma_qp_offset=-3 / threads=6 / lookahead_threads=1 / sliced_threads=0 / nr=0 / decimate=0 / interlaced=0 / bluray_compat=0 / constrained_intra=0 / bframes=13 / b_pyramid=2 / b_adapt=2 / b_bias=0 / direct=3 / weightb=1 / open_gop=0 / weightp=2 / keyint=240 / keyint_min=23 / scenecut=40 / intra_refresh=0 / rc_lookahead=40 / rc=2pass / mbtree=0 / bitrate=3946 / ratetol=1.0 / qcomp=0.60 / qpmin=0 / qpmax=69 / qpstep=4 / cplxblur=20.0 / qblur=0.5 / vbv_maxrate=50000 / vbv_bufsize=62500 / nal_hrd=none / filler=0 / ip_ratio=1.40 / pb_ratio=1.30 / aq=3:0.80

Аудио #1
Формат : AC-3
Формат/Информация : Audio Coding 3
Идентификатор кодека : A_AC3
Продолжительность : 1ч 43мин
Режим расчёта битрейта : Постоянный
Битрейт : 640 Кбит/сек
Канал(ы) : 6 канала(ов)
Расположение каналов : Front: L C R, Rear: L R, LFE
Частота : 48,0 КГц
Заголовок : Дублированный
Язык : Russian

Аудио #2
Формат : AC-3
Формат/Информация : Audio Coding 3
Идентификатор кодека : A_AC3
Продолжительность : 1ч 43мин
Режим расчёта битрейта : Постоянный
Битрейт : 640 Кбит/сек
Канал(ы) : 6 канала(ов)
Расположение каналов : Front: L C R, Rear: L R, LFE
Частота : 48,0 КГц
Заголовок : Авторский одноголосый (А.Гаврилов)
Язык : Russian

Аудио #3
Формат : AC-3
Формат/Информация : Audio Coding 3
Идентификатор кодека : A_AC3
Продолжительность : 1ч 43мин
Режим расчёта битрейта : Постоянный
Битрейт : 640 Кбит/сек
Канал(ы) : 6 канала(ов)
Расположение каналов : Front: L C R, Rear: L R, LFE
Частота : 48,0 КГц
Заголовок : Оригинал

Текст #1
Формат : UTF-8
Идентификатор кодека : S_TEXT/UTF8
Идентификатор кодека/Информация : UTF-8 Plain Text
Заголовок : форсированные
Язык : Russian

Текст #2
Формат : UTF-8
Идентификатор кодека : S_TEXT/UTF8
Идентификатор кодека/Информация : UTF-8 Plain Text
Заголовок : полные
Язык : Russian

Текст #3
Формат : UTF-8
Идентификатор кодека : S_TEXT/UTF8
Идентификатор кодека/Информация : UTF-8 Plain Text
Заголовок : полные

Разделы
Язык : English
1 : 00:00:00.000 Chapter 01
2 : 00:05:58.358 Chapter 02
3 : 00:11:47.539 Chapter 03
4 : 00:16:53.678 Chapter 04
5 : 00:20:13.252 Chapter 05
6 : 00:25:11.009 Chapter 06
7 : 00:28:55.316 Chapter 07
8 : 00:33:57.743 Chapter 08
9 : 00:37:54.145 Chapter 09
10 : 00:42:42.933 Chapter 10
11 : 00:46:18.942 Chapter 11
12 : 00:50:27.690 Chapter 12
13 : 00:56:46.067 Chapter 13
14 : 01:01:58.047 Chapter 14
15 : 01:07:12.820 Chapter 15
16 : 01:12:08.532 Chapter 16
17 : 01:18:20.862 Chapter 17
18 : 01:23:25.081 Chapter 18
19 : 01:27:26.157 Chapter 19
20 : 01:31:14.385 Chapter 20
21 : 01:43:03.092 Chapter 21

x264 [info]: frame I:1071 Avg QP:14.56 size:118552
x264 [info]: frame P:40446 Avg QP:17.59 size: 38986
x264 [info]: frame B:106735 Avg QP:19.88 size: 12608


Релиз от:
Автор рипа

www.rutor.org.new-rutor.org

new-rutor.org :: Великая стена / The Great Wall (2016) HDRip от Scarabey


Мы "В КОНТАКТЕ" =)

Год выпуска: 2016
Страна: США, Китай, Гонконг, Австралия, Канада
Жанр: фэнтези, боевик, триллер, приключения
Продолжительность: 01:43:03
Перевод: Профессиональный (полное дублирование) [Лицензия]
Cубтитры: нет

Режиссер: Чжан Имоу / Zhang Yimou

В ролях: Мэтт Дэймон, Цзин Тянь, Уиллем Дефо, Энди Лау, Педро Паскаль, Чжан Ханьюй, Лухан, Кенни Линь, Эдди Пэн, Хуан Сюань

Описание: Великую стену воздвигли, чтобы оградить Поднебесную от любых угроз, но с таким врагом не сталкивались даже самые отважные ее защитники. Если вторжение не остановить — мир будет уничтожен.

Качество видео: BDRip 720p
Формат видео: MKV

Видео: 1280х536, 23.976 fps, AVC ~5010 kbps avg
Аудио: 48 kHz, AC3 Dolby Digital, 3/2 (L,C,R,l,r) + LFE ch, ~640 kbps

Релиз от:

АНОНСЫ МОИХ РАЗДАЧ!

МедиаИнфо


Великая стенаThe.Great.Wall.2016.720p_BDRip_[scarabey.org].mkv
Format : Matroska
Format version : Version 4 / Version 2
File size : 4.15 GiB
Duration : 1h 43mn
Overall bit rate : 5 765 Kbps
Movie name : The Great Wall 2016 720p BluRay DD5.1 x264-HDS
Encoded date : UTC 2017-05-14 16:36:08
Writing application : mkvmerge v6.1.0 ('Old Devil') built on Mar 4 2013 09:10:42
Writing library : libebml v1.3.0 + libmatroska v1.4.0

Video
ID : 1
Format : AVC
Format/Info : Advanced Video Codec
Format profile : [email protected]
Format settings, CABAC : Yes
Format settings, ReFrames : 12 frames
Codec ID : V_MPEG4/ISO/AVC
Duration : 1h 43mn
Bit rate : 5 010 Kbps
Width : 1 280 pixels
Height : 536 pixels
Display aspect ratio : 2.40:1
Frame rate mode : Constant
Frame rate : 23.976 fps
Color space : YUV
Chroma subsampling : 4:2:0
Bit depth : 8 bits
Scan type : Progressive
Bits/(Pixel*Frame) : 0.305
Stream size : 3.61 GiB (87%)
Title : 环环@HDSky
Writing library : x264 core 148 r2705+45 bdacf7a 7mod [[email protected] X86_64]
Encoding settings : cabac=1 / ref=12 / deblock=1:-3:-3 / analyse=0x3:0x113 / me=umh / subme=11 / psy=1 / fade_compensate=0.00 / psy_rd=1.00:0.05 / mixed_ref=1 / me_range=32 / chroma_me=1 / trellis=2 / 8x8dct=1 / cqm=0 / deadzone=21,11 / fast_pskip=0 / chroma_qp_offset=-2 / threads=24 / lookahead_threads=4 / sliced_threads=0 / nr=0 / decimate=1 / interlaced=0 / bluray_compat=0 / constrained_intra=0 / fgo=0 / bframes=8 / b_pyramid=2 / b_adapt=2 / b_bias=0 / direct=3 / weightb=1 / open_gop=0 / weightp=2 / keyint=250 / keyint_min=23 / scenecut=40 / intra_refresh=0 / rc=crf / mbtree=0 / crf=16.0000 / qcomp=0.60 / qpmin=0:0:0 / qpmax=69:69:69 / qpstep=4 / ip_ratio=1.40 / pb_ratio=1.30 / aq=4:0.90 / aq-sensitivity=10.00 / aq-factor=1.00:1.00:1.00 / aq2=0 / aq3=0
Default : Yes
Forced : No

Audio
ID : 2
Format : AC-3
Format/Info : Audio Coding 3
Mode extension : CM (complete main)
Format settings, Endianness : Big
Codec ID : A_AC3
Duration : 1h 43mn
Bit rate mode : Constant
Bit rate : 640 Kbps
Channel(s) : 6 channels
Channel positions : Front: L C R, Side: L R, LFE
Sampling rate : 48.0 KHz
Bit depth : 16 bits
Compression mode : Lossy
Stream size : 472 MiB (11%)
Title : Дубляж - Лицензия
Language : Russian
Default : Yes
Forced : No

Text
ID : 3
Format : UTF-8
Codec ID : S_TEXT/UTF8
Codec ID/Info : UTF-8 Plain Text
Title : русские, форсированные
Language : Russian
Default : Yes
Forced : No

www.rutororg.new-rutor.org

new-rutor.org :: Великая стена / The Great Wall (2016) BDRip-AVC от MediaClub


Информация о фильме
Название: Великая стена
Оригинальное название: The Great Wall
Год выхода: 2016
Жанр: Фэнтези, приключения
Режиссер: Имоу Чжан
В ролях: Мэтт Дэймон, Тянь Цзин, Педро Паскаль, Лу Хан, Уиллем Дефо, Энди Лау, Эдди Пэн, Нуман Аджар, Кенни Лин, Ханьюй Чжан, Вики Юй, Лю Бин, Кай Чжэн, Джонни Чикко, Чэни Чэнь, Кэрри Ван, Сюань Хуан

О фильме: Великую стену воздвигли, чтобы оградить Поднебесную от любых угроз, но с таким врагом не сталкивались даже самые отважные ее защитники. Если вторжение не остановить — мир будет уничтожен.

Страна: Китай, США
Студия: Atlas Entertainment, China Film Group Corporation, Legendary Pictures
Продолжительность: 01:43:03
Дата релиза: 01.07.2019

Файл
Кодек: x264
Качество: BDRip-AVC
Видео: MPEG-4 AVC, 2530 Кбит/с, 1024x430, 23.976 кадр/c
Аудио #1: Русский (AC3, 6 ch, 448 Кбит/с) / Дублированный
Аудио #2: Русский (AC3, 6 ch, 448 Кбит/с) / Авторский одноголосый (А.Гаврилов)
Аудио #3: Английский (AC3, 6 ch, 448 Кбит/с)
Субтитры: Русские, английские

Семпл

MediaInfo

Общее
Полное имя : D:ЗагрузкиVelikaia.stena.2016.x264.BDRip.(AVC)-MediaClub.mkv
Формат : Matroska
Размер файла : 2,79 Гигабайт
Продолжительность : 1ч 43мин
Общий поток : 3 876 Кбит/сек
Фильм : Релиз от MediaClub (konstantin49)
Дата кодирования : UTC 2019-06-30 18:26:34
Программа-кодировщик : mkvmerge v5.8.0 ('No Sleep / Pillow') built on Sep 2 2012 15:37:04
Библиотека кодирования : libebml v1.2.3 + libmatroska v1.3.0

Видео
Формат : AVC
Формат/Информация : Advanced Video Codec
Профайл формата : [email protected]
Настройка CABAC формата : Да
Настройка ReFrames формата : 12 кадры
Режим смешивания : Container [email protected]
Идентификатор кодека : V_MPEG4/ISO/AVC
Продолжительность : 1ч 42мин
Битрейт : 2 363 Кбит/сек
Номинальный битрейт : 2 530 Кбит/сек
Ширина : 1 024 пикс.
Высота : 430 пикс.
Соотношение кадра : 2.35
Частота кадров : 23,976 кадр/сек
Разрешение : 24 бит
Колориметрия : 4:2:0
Тип развёртки : Прогрессивная
Бит/(Пиксели*Кадры) : 0.240
Библиотека кодирования : x264 core 148 r2638 7599210
Настройки программы : cabac=1 / ref=12 / deblock=1:-3:-3 / analyse=0x3:0x113 / me=umh / subme=11 / psy=1 / psy_rd=1.00:0.15 / mixed_ref=1 / me_range=48 / chroma_me=1 / trellis=2 / 8x8dct=1 / cqm=0 / deadzone=21,11 / fast_pskip=0 / chroma_qp_offset=-3 / threads=6 / lookahead_threads=1 / sliced_threads=0 / nr=0 / decimate=0 / interlaced=0 / bluray_compat=0 / constrained_intra=0 / bframes=11 / b_pyramid=2 / b_adapt=2 / b_bias=0 / direct=3 / weightb=1 / open_gop=0 / weightp=2 / keyint=240 / keyint_min=23 / scenecut=40 / intra_refresh=0 / rc_lookahead=40 / rc=2pass / mbtree=0 / bitrate=2530 / ratetol=1.0 / qcomp=0.60 / qpmin=0 / qpmax=69 / qpstep=4 / cplxblur=20.0 / qblur=0.5 / vbv_maxrate=50000 / vbv_bufsize=62500 / nal_hrd=none / filler=0 / ip_ratio=1.40 / pb_ratio=1.30 / aq=3:0.80

Аудио #1
Формат : AC-3
Формат/Информация : Audio Coding 3
Идентификатор кодека : A_AC3
Продолжительность : 1ч 43мин
Режим расчёта битрейта : Постоянный
Битрейт : 448 Кбит/сек
Канал(ы) : 6 канала(ов)
Расположение каналов : Front: L C R, Rear: L R, LFE
Частота : 48,0 КГц
Заголовок : Дублированный
Язык : Russian

Аудио #2
Формат : AC-3
Формат/Информация : Audio Coding 3
Идентификатор кодека : A_AC3
Продолжительность : 1ч 43мин
Режим расчёта битрейта : Постоянный
Битрейт : 448 Кбит/сек
Канал(ы) : 6 канала(ов)
Расположение каналов : Front: L C R, Rear: L R, LFE
Частота : 48,0 КГц
Заголовок : Авторский одноголосый (А.Гаврилов)
Язык : Russian

Аудио #3
Формат : AC-3
Формат/Информация : Audio Coding 3
Идентификатор кодека : A_AC3
Продолжительность : 1ч 43мин
Режим расчёта битрейта : Постоянный
Битрейт : 448 Кбит/сек
Канал(ы) : 6 канала(ов)
Расположение каналов : Front: L C R, Rear: L R, LFE
Частота : 48,0 КГц
Заголовок : Оригинал

Текст #1
Формат : UTF-8
Идентификатор кодека : S_TEXT/UTF8
Идентификатор кодека/Информация : UTF-8 Plain Text
Заголовок : форсированные
Язык : Russian

Текст #2
Формат : UTF-8
Идентификатор кодека : S_TEXT/UTF8
Идентификатор кодека/Информация : UTF-8 Plain Text
Заголовок : полные
Язык : Russian

Текст #3
Формат : UTF-8
Идентификатор кодека : S_TEXT/UTF8
Идентификатор кодека/Информация : UTF-8 Plain Text
Заголовок : полные

Разделы
Язык : English
1 : 00:00:00.000 Chapter 01
2 : 00:05:58.358 Chapter 02
3 : 00:11:47.539 Chapter 03
4 : 00:16:53.678 Chapter 04
5 : 00:20:13.252 Chapter 05
6 : 00:25:11.009 Chapter 06
7 : 00:28:55.316 Chapter 07
8 : 00:33:57.743 Chapter 08
9 : 00:37:54.145 Chapter 09
10 : 00:42:42.933 Chapter 10
11 : 00:46:18.942 Chapter 11
12 : 00:50:27.690 Chapter 12
13 : 00:56:46.067 Chapter 13
14 : 01:01:58.047 Chapter 14
15 : 01:07:12.820 Chapter 15
16 : 01:12:08.532 Chapter 16
17 : 01:18:20.862 Chapter 17
18 : 01:23:25.081 Chapter 18
19 : 01:27:26.157 Chapter 19
20 : 01:31:14.385 Chapter 20
21 : 01:43:03.092 Chapter 21

x264 [info]: frame I:1185 Avg QP:14.63 size: 81175
x264 [info]: frame P:38931 Avg QP:17.89 size: 25909
x264 [info]: frame B:108136 Avg QP:20.30 size: 7862


Релиз от:
Автор рипа

rutorg.org.new-rutor.org


Смотрите также